#TITLE:Suck My Dogs;
#SUBTITLE:(@@@@);
#ARTIST:Unknown;
#TITLETRANSLIT:;
#SUBTITLETRANSLIT:;
#ARTISTTRANSLIT:;
#CREDIT:;
#BANNER:suckmydogs.png;
#BACKGROUND:suckmydogs-bg.png;
#LYRICSPATH:;
#CDTITLE:;
#MUSIC:suckmydogs.mp3;
#OFFSET:-0.085;
#SAMPLESTART:13.918;
#SAMPLELENGTH:10.327;
#SELECTABLE:YES;
#BPMS:0.000=170.000;
#STOPS:;
#BGCHANGES:;
// cache tags:
#FIRSTBEAT:15.500;
#LASTBEAT:140.000;
#SONGFILENAME:Songs/Music V.I.P ^_^/Suck My Dogs @@@@/suckmydogs.sm;
#HASMUSIC:1;
#HASBANNER:1;
#MUSICLENGTH:51.226;
// end cache tags

//---------------dance-single - ----------------
#NOTES:
     dance-single:
     :
     Hard:
     9:
     0.505,0.615,0.625,1.000,0.088,84.000,32.000,65.000,0.000,0.000:  // measure 1
0000
0000
0000
0000
,  // measure 2
0000
0000
0000
0000
,  // measure 3
0000
0000
0000
0000
,  // measure 4
0000
0000
0000
0000
0000
0000
0000
1000
,  // measure 5
0100
1000
0001
0100
0000
0000
0000
0000
,  // measure 6
0001
1000
0010
0010
0100
0000
0000
0000
,  // measure 7
0100
0001
0010
0001
1000
0000
0000
0000
,  // measure 8
0001
0000
1000
0000
0001
1000
0001
0000
1000
0000
0010
0000
0000
0000
0000
0000
,  // measure 9
0000
0000
0000
0000
,  // measure 10
0000
0000
0000
0000
0000
0000
0000
0000
0000
0000
0000
0000
0000
0000
0000
2002
,  // measure 11
0000
3003
0000
2002
0000
3003
0000
2002
0000
3003
0000
0000
0000
0220
0000
0000
,  // measure 12
0000
0000
0330
0000
0000
0000
0000
2200
,  // measure 13
3300
0022
0033
2200
3300
0000
2002
0000
,  // measure 14
0000
0000
3003
0000
0000
0000
0000
2020
,  // measure 15
3030
0202
0303
2020
3030
0000
2002
0000
,  // measure 16
0000
0000
3003
0000
0000
0000
0000
0220
,  // measure 17
0330
2002
3003
0220
0330
0000
2002
0000
,  // measure 18
0000
3003
0000
0000
,  // measure 19
0000
0000
0000
0000
,  // measure 20
0000
0000
0000
0000
0000
0000
0100
0100
,  // measure 21
1000
0000
0100
0000
0010
0000
1000
0001
0010
0000
0000
0000
0000
0000
0000
0000
,  // measure 22
0000
0000
0000
0000
0000
0000
0010
0010
,  // measure 23
0100
0001
0100
0010
0000
0000
0000
0010
,  // measure 24
1000
0000
0001
0000
0010
0001
1000
0002
0000
0000
0000
0000
0013
0000
0000
0000
,  // measure 25
0000
0000
0000
0000
0010
0000
0010
0000
0001
0010
0100
0000
0100
0000
0010
0000
,  // measure 26
0001
0000
0000
0000
,  // measure 27
0000
0000
0000
0000
,  // measure 28
0000
0000
0000
0000
0000
0000
0022
0033
,  // measure 29
2200
3300
0022
0033
0000
2002
0000
0000
,  // measure 30
0000
0000
3003
0000
0000
0000
2020
3030
,  // measure 31
0202
0303
2020
3030
0000
2002
0000
0000
,  // measure 32
0000
0000
3003
0000
0000
0000
2200
3300
,  // measure 33
0202
0303
2200
3300
0000
2002
0000
0000
,  // measure 34
0000
0000
3003
0000
0000
0000
2002
3003
,  // measure 35
0220
0330
2002
3003
0000
2002
0000
0000
,  // measure 36
3003
0000
0000
0000
;
